#TITLE:Heart Of Witch;
#SUBTITLE:DJMax Black Square;
#ARTIST:REX;
#TITLETRANSLIT:Heart Of Witch;
#SUBTITLETRANSLIT:DJMax Black Square;
#ARTISTTRANSLIT:REX;
#CREDIT:;
#BANNER:bn.jpg;
#BACKGROUND:bg.jpg;
#LYRICSPATH:;
#CDTITLE:CD.png;
#MUSIC:Heart of Witch.ogg;
#OFFSET:0.780;
#SAMPLESTART:62.758;
#SAMPLELENGTH:20.000;
#SELECTABLE:YES;
#DISPLAYBPM:170.000;
#BPMS:0.000=170.040,39.125=85.020,39.438=340.080,40.000=170.040,43.125=85.020,43.417=340.080,44.000=170.040,47.125=85.020,47.417=340.080,48.000=170.040,55.125=85.020,55.417=340.080,56.000=170.040,59.125=85.020,59.417=340.080,60.000=170.040,63.125=85.020,63.417=340.080,64.000=170.040,100.000=85.020,120.000=170.040;
#STOPS:;
#BGCHANGES:0.000=Heart of Witch.avi=1.000=1=0=1,
236.000=bg.jpg=1.000=0=0=1,
99999=-nosongbg-=1.000=0=0=0 // don't automatically add -songbackground-
;
// cache tags:
#FIRSTBEAT:3.000;
#LASTBEAT:236.000;
#SONGFILENAME:Songs/Music V.I.P ^_^/Heart Of Witch/Heart of Witch.sm;
#HASMUSIC:1;
#HASBANNER:1;
#MUSICLENGTH:95.007;
// end cache tags

//---------------dance-single - ----------------
#NOTES:
     dance-single:
     :
     Hard:
     21:
     1.000,1.000,1.000,1.000,1.000,747.000,184.000,219.000,0.000,64.000:
0000
0000
0000
0000
0000
0000
0000
0000
0000
0000
0000
0000
1000
0100
0010
0001
,
2110
0100
0010
3001
0121
1000
0130
0010
,
1012
0000
0023
0000
2030
0000
3200
0000
0311
0100
0001
1000
0110
0001
0100
0010
,
1201
0000
0001
0000
1302
0000
0100
1000
0203
0000
0001
0000
0312
0000
1000
0100
,
1013
0000
0101
0000
1100
0000
0111
0000
0100
0010
1000
0010
0001
1000
0010
0010
,
1110
0000
1000
0100
2000
0000
0011
0000
3001
0010
0100
0000
1200
0000
0001
0010
,
0301
0000
0012
0000
1010
0100
0013
1000
0010
0100
1010
0101
0020
0000
1000
0100
,
1031
0000
1000
0100
0010
0000
0120
0000
0100
0001
0130
0000
1200
0000
0001
0010
,
0301
0000
0012
0000
1000
0100
0010
1000
0013
0100
0001
1000
0011
0011
0011
0011
,
1100
0100
0100
1010
0001
1010
0200
0000
,
1311
0100
0100
1010
0001
1010
0200
0000
,
1311
0100
0100
1010
0001
1010
0200
0000
,
1321
0000
0000
0000
0000
0000
0000
0000
1231
0000
0000
0000
0010
0000
0001
0000
1320
0000
0000
0000
1000
0000
0100
0000
1032
0000
0010
0000
0100
0000
0010
0100
,
1003
0100
0100
1010
0001
1010
0200
0000
,
1311
0100
0100
1010
0001
1010
0200
0000
,
1311
0100
0010
0001
0100
0010
1100
0000
0001
0000
1010
0000
1200
0000
0000
0000
,
1321
0000
0000
0000
1231
0000
1000
0000
1312
0100
0010
0100
1003
0001
0010
0100
,
1002
0000
1000
0000
2003
3000
2000
3200
0320
0032
0203
0320
0230
0302
2003
3020
,
0230
0302
0023
0230
0320
2030
3200
2300
3020
0230
0302
0023
0230
0320
0230
0302
,
2003
0000
0001
0000
3002
0003
0002
0023
0230
0302
2003
3200
0320
2030
3002
0023
,
0230
0320
2030
3002
0203
0320
2030
3020
0230
0302
0023
0230
0320
0230
2300
3200
,
2301
0000
0000
0000
3002
0003
0002
0023
0230
0302
2003
3200
0320
2030
3020
0230
,
0320
0032
0023
0032
0203
0320
2030
3020
0230
0302
0023
2030
3200
0320
0032
0023
,
0230
0000
0000
0000
2301
0000
3001
0010
0100
0010
0001
1000
0010
0001
0100
0010
,
1001
0000
0110
0000
1001
0000
0001
0000
1010
0000
0100
0000
1010
0000
0001
0000
0100
0000
0100
0000
0100
0000
0100
0000
1010
0000
0001
0000
0100
0010
1001
0000
,
0010
0000
0100
0000
0000
0000
0001
0010
0001
1000
0100
1000
0010
0100
0010
0001
1010
0000
0100
0000
1010
0000
0001
0000
1000
0000
0010
0001
1000
0100
0010
0001
,
1000
0000
0001
0000
0100
0000
0010
1000
0100
1000
0010
0100
0010
0001
0010
0001
1000
0000
0000
0000
1000
0100
1000
0001
0010
0001
0100
0010
0100
0001
0010
0100
,
1001
0000
0010
0000
0101
0000
1000
0001
0010
0001
0100
0010
1000
0001
0100
0010
1000
0000
0100
0000
1010
0000
0001
0000
0010
0000
0001
0100
0010
1000
0100
0010
,
0001
0000
1000
0000
0010
0000
0100
1000
0001
0010
0100
0010
0100
1000
0001
0010
0100
0000
1000
0000
1000
0010
0100
0001
0100
0010
1000
0100
0010
0001
0010
0001
,
1100
0000
0001
0000
0000
0000
1000
0100
0010
1000
0010
0100
0001
0010
0001
0010
1100
0000
1000
0001
0010
0001
0100
0010
1000
0100
0010
0100
0001
0100
0010
1000
,
0011
1000
0100
1000
0011
1000
0100
0010
1100
0001
0110
0001
1100
0010
1001
0100
,
1011
0001
1100
0100
0011
1010
0100
0010
0101
1000
0011
0100
1001
0010
0100
0010
,
1100
1100
1100
1100
0110
0000
0101
0000
0010
0000
0010
0000
0201
0000
0010
1000
,
0311
1100
0011
1001
0110
0000
1100
0000
0100
0000
0100
0000
1210
0000
0001
1000
,
0311
1100
0011
1001
0110
0000
0110
0000
0100
0000
0100
0000
1210
0000
1001
1000
,
0321
0000
0000
0000
0001
0000
0000
0000
2131
0000
0000
0000
0100
0000
0010
0000
3102
0000
0000
0000
1000
0000
0000
0000
2013
0000
0100
0000
0010
0000
0100
0010
,
3101
1010
0101
1001
0110
0000
0101
0000
0101
0000
0010
0000
0121
0000
0100
1000
,
0131
1010
0101
1001
0110
0000
0010
0000
0101
0000
0101
0000
0121
0000
0101
0101
,
1130
0011
1100
0011
1100
0011
0100
0000
1010
0000
1010
0000
1210
0000
0010
0001
,
1320
0000
0100
0000
1000
0000
0000
0000
1032
0000
0100
0000
0010
0000
0100
0000
2013
0000
0001
0000
0010
0000
0100
0000
3021
0000
1000
0000
0100
0000
0001
1000
,
0130
0000
1000
0100
0010
0001
1000
0001
2000
0010
0001
0100
3020
0001
0100
0001
,
1230
0001
0010
1000
0301
0010
0100
1000
0002
0010
0100
1000
0203
0010
0001
1000
,
0320
1000
0100
0001
1030
0100
0010
0001
2000
0001
0010
0100
3002
1000
0010
0100
,
0023
0001
0100
0001
1030
0100
1010
0001
1100
0001
1100
0001
1010
0001
0100
0010
,
1201
0000
0001
0000
0301
0010
0100
1000
0002
1000
0010
0100
0023
1000
0100
0001
,
0230
0001
0010
1000
0310
0001
0100
0010
2000
0100
0010
0100
3002
1000
0100
0010
,
0203
0001
0010
0001
1300
0001
0100
0001
0010
0100
0010
1000
0010
0001
0100
0010
,
1100
0000
0011
0000
1100
0000
0011
0000
1100
0000
0011
0000
1100
0000
0011
0000
1001
0000
0110
0000
1001
0000
0110
0000
1001
0000
0110
0000
1001
0000
0100
0010
,
1002
0000
0000
0000
2000
3200
2303
3020
2030
3020
0230
0320
0230
0302
0023
0032
,
2003
0000
3200
0000
2300
0000
3002
0000
0203
0000
0320
0000
0230
0000
2300
0000
3002
0000
0023
0000
0230
0000
0320
0000
0032
0000
2003
0000
3020
0000
0230
1000
,
0302
0000
0000
0000
2003
3200
2300
3020
2030
3002
2003
3020
0230
0320
2030
3002
,
0203
0000
0320
0000
0230
0000
0302
0000
2003
0000
3200
0000
0320
0000
0032
0000
2003
0000
3200
0000
0320
0000
0032
0000
0023
0000
0230
0000
2300
0000
3200
0010
,
2302
0003
0000
0000
3021
0000
1230
0000
0321
0000
2130
0000
3012
0000
2103
0000
,
3101
0000
0101
0000
0101
0000
0010
0000
1001
0000
0100
0000
1010
0000
0100
0000
1011
0000
1000
0000
0011
0000
1001
0000
0110
0000
1001
0000
0101
0000
0010
0100
,
2022
0000
0000
0000
0000
0000
3033
0000
2112
0000
0000
0000
0000
0000
3113
1001
,
0220
0000
0000
0000
,
0000
0000
0000
0000
,
0000
0000
0000
0000
,
0000
0000
0000
0000
,
0330
0000
0000
0000
;
